Эмпайр Стэйт / Empire State (Дито Монтиель / Dito Montiel) [2013, США, боевик, драма, BDRip 720p] DVO + AVO (Л. Володарский) + Original (Eng) + Subs (Eng)

Ответить на тему
 
Автор Сообщение

user ®

Стаж: 7 лет 7 месяцев

Сообщений: 20008

Пост Пост: #1 от 27-Ноя-2013 23:15

[Цитировать]

Эмпайр Стэйт / Empire State

-
-Страна: США
Студия: Grosvenor Park Media, Swift Street Productions
Жанр: боевик, драма
Год выпуска: 2013
Продолжительность: 01:34:20--Перевод 1: Любительский (двухголосый закадровый)
Перевод 2: Авторский (одноголосый закадровый) Л. Володарский
Cубтитры: английские (full, SDH)
Оригинальная аудиодорожка: английский--Режиссер: Дито Монтиель / Dito Montiel
В ролях: Лиам Хемсворт, Дуэйн Джонсон, Эмма Робертс, Никки Рид, Шеней Граймс, Майкл Ангарано, Джерри Феррара, Крис Диамантополос, Джеймс Рэнсон, Джина Мантенья--Описание: В этом фильме, основанном на реальных событиях, речь пойдет о произошедшем в 1982 году в Нью-Йорке ограблении инкассаторских бронеавтомобилей, которое на тот момент считалось крупнейшим в США.--imdb | kinopoisk | Сэмпл--Тип релиза: BDRip 720p [Empire State 2013 720p BluRay DTS x264-TayTO]
Контейнер: MKV
Видео: MPEG-4 AVC / 3997 kbps / 1280x536 / 23,976 fps / 2,40:1 / High Profile 4.1
Аудио 1: Russian AC3 / 5.1 / 48 kHz / 448 kbps / 16 bits |DVO|
Аудио 2: Russian DTS / 5.1 / 48 kHz / 1509 kbps / 24 bits |Л. Володарский|
Аудио 3: English DTS / 5.1 / 48 kHz / 1509 kbps / 24 bits |original|
Формат субтитров: softsub [SRT]

MediaInfo

Общее
Уникальный идентификатор                 : 203840395160814847004479470402120003039 (0x995A3B6A5ACE0B18A024ECDC359D2DDF)
Полное имя                               : G:\HD\Эмпайр Стэйт.2013.BDRip.(720p).mkv
Формат                                   : Matroska
Версия формата                           : Version 2
Размер файла                             : 5,02 Гбайт
Продолжительность                        : 1 ч. 34 м.
Общий поток                              : 7615 Кбит/сек
Дата кодирования                         : UTC 2013-11-26 18:50:15
Программа кодирования                    : mkvmerge v5.8.0 ('No Sleep / Pillow') built on Sep  2 2012 15:37:04
Библиотека кодирования                   : libebml v1.2.3 + libmatroska v1.3.0
Attachment                               : Yes
Видео
Идентификатор                            : 1
Формат                                   : AVC
Формат/Информация                        : Advanced Video Codec
Профиль формата                          : High@L4.1
Параметр CABAC формата                   : Да
Параметр ReFrames формата                : 12 кадров
Идентификатор кодека                     : V_MPEG4/ISO/AVC
Продолжительность                        : 1 ч. 34 м.
Битрейт                                  : 3997 Кбит/сек
Ширина                                   : 1280 пикселей
Высота                                   : 536 пикселей
Соотношение сторон                       : 2,40:1
Режим частоты кадров                     : Постоянный
Частота кадров                           : 23,976 кадра/сек
Цветовое пространство                    : YUV
Субдискретизация насыщенности            : 4:2:0
Битовая глубина                          : 8 бит
Тип развёртки                            : Прогрессивная
Бит/(Пиксели*Кадры)                      : 0.243
Размер потока                            : 2,63 Гбайт (52%)
Заголовок                                : Empire State 2013 720p BluRay DTS x264-TayTO
Библиотека кодирования                   : x264 core 135 r2345 f0c1c53
Настройки программы                      : cabac=1 / ref=12 / deblock=1:-3:-3 / analyse=0x3:0x133 / me=tesa / subme=11 / psy=1 / psy_rd=1.00:0.00 / mixed_ref=1 / me_range=16 / chroma_me=1 / trellis=2 / 8x8dct=1 / cqm=0 / deadzone=21,11 / fast_pskip=0 / chroma_qp_offset=-2 / threads=12 / lookahead_threads=2 / sliced_threads=0 / nr=0 / decimate=1 / interlaced=0 / bluray_compat=0 / constrained_intra=0 / bframes=8 / b_pyramid=2 / b_adapt=2 / b_bias=0 / direct=3 / weightb=1 / open_gop=0 / weightp=2 / keyint=250 / keyint_min=23 / scenecut=40 / intra_refresh=0 / rc=crf / mbtree=0 / crf=16.0 / qcomp=0.75 / qpmin=0 / qpmax=69 / qpstep=4 / ip_ratio=1.40 / pb_ratio=1.30 / aq=1:0.75
Язык                                     : English
Default                                  : Да
Forced                                   : Нет
Коэффициенты матрицы                     : BT.709
Аудио #1
Идентификатор                            : 2
Формат                                   : AC-3
Формат/Информация                        : Audio Coding 3
Расширение режима                        : CM (complete main)
Параметр Endianness формата              : Big
Идентификатор кодека                     : A_AC3
Продолжительность                        : 1 ч. 34 м.
Вид битрейта                             : Постоянный
Битрейт                                  : 448 Кбит/сек
Каналы                                   : 6 каналов
Расположение каналов                     : Front: L C R, Side: L R, LFE
Частота                                  : 48,0 КГц
Битовая глубина                          : 16 бит
Метод сжатия                             : С потерями
Размер потока                            : 302 Мбайт (6%)
Заголовок                                : DVO
Язык                                     : Russian
Default                                  : Нет
Forced                                   : Нет
Аудио #2
Идентификатор                            : 3
Формат                                   : DTS
Формат/Информация                        : Digital Theater Systems
Режим                                    : 16
Параметр Endianness формата              : Big
Идентификатор кодека                     : A_DTS
Продолжительность                        : 1 ч. 34 м.
Вид битрейта                             : Постоянный
Битрейт                                  : 1509 Кбит/сек
Каналы                                   : 6 каналов
Расположение каналов                     : Front: L C R, Side: L R, LFE
Частота                                  : 48,0 КГц
Битовая глубина                          : 24 бит
Метод сжатия                             : С потерями
Размер потока                            : 1018 Мбайт (20%)
Заголовок                                : Л. Володарский
Язык                                     : Russian
Default                                  : Да
Forced                                   : Нет
Аудио #3
Идентификатор                            : 4
Формат                                   : DTS
Формат/Информация                        : Digital Theater Systems
Режим                                    : 16
Параметр Endianness формата              : Big
Идентификатор кодека                     : A_DTS
Продолжительность                        : 1 ч. 34 м.
Вид битрейта                             : Постоянный
Битрейт                                  : 1509 Кбит/сек
Каналы                                   : 6 каналов
Расположение каналов                     : Front: L C R, Side: L R, LFE
Частота                                  : 48,0 КГц
Битовая глубина                          : 24 бит
Метод сжатия                             : С потерями
Размер потока                            : 1018 Мбайт (20%)
Язык                                     : English
Default                                  : Нет
Forced                                   : Нет
Текст #1
Идентификатор                            : 5
Формат                                   : UTF-8
Идентификатор кодека                     : S_TEXT/UTF8
Идентификатор кодека/Информация          : UTF-8 Plain Text
Заголовок                                : full
Язык                                     : English
Default                                  : Нет
Forced                                   : Нет
Текст #2
Идентификатор                            : 6
Формат                                   : UTF-8
Идентификатор кодека                     : S_TEXT/UTF8
Идентификатор кодека/Информация          : UTF-8 Plain Text
Заголовок                                : SDH
Язык                                     : English
Default                                  : Нет
Forced                                   : Нет
Меню
00:00:00.000                             : :Chapter 01
00:06:06.157                             : :Chapter 02
00:13:03.032                             : :Chapter 03
00:19:22.995                             : :Chapter 04
00:22:39.775                             : :Chapter 05
00:27:36.071                             : :Chapter 06
00:33:38.766                             : :Chapter 07
00:39:55.017                             : :Chapter 08
00:46:00.382                             : :Chapter 09
00:52:26.143                             : :Chapter 10
00:59:47.375                             : :Chapter 11
01:06:38.703                             : :Chapter 12
01:12:29.887                             : :Chapter 13
01:20:12.808                             : :Chapter 14
01:25:26.746                             : :Chapter 15
01:29:23.900                             : :Chapter 16

Скриншоты


Дополнительно

За перевод Л. В. Володарского благодарим сайт е180 и конкретно этих участников которые оплатили данный перевод: Nadoelo, jorn2, User, Kastro, Guyver, пуля, uchitel538, фёдор александрович, Алекс, karantin66, Hattori Hanzo, Maldivess, zeleniy, Диммон, Daniel Rock, xerman13, furria62, bla_, Iceman, lotasfan, Водолей, Sedorelli, Эдуард, Wolf_Larsen, denis_mgn_1987, Splinter, Savely, SavineX78, dimavirovec, SJC, Марлон, Lee Ray, luka69

Empire State 2013 720p BluRay DTS x264-TayTO

RELEASE iNFO
RELEASE NAME..: Empire State 2013 720p BluRay DTS x264-TayTO
ENCODED DATE..: UTC 2013-08-27 03:07:06
RELEASE SIZE..: 3.82 GiB
RUNTIME.......: 1h 34mn
VIDEO CODEC...: x264, High@L4.1
FRAMERATE.....: 23.976 fps
BITRATE.......: 4 064 Kbps
RESOLUTION....: 1280x536
AUDIO.........: English DTS 5.1@1 510 Kbps
AUDIO2........: English AAC 2.0@137 Kbps | Commentary with Director Dito Montiel
CHAPTERS......: Yes
SUBTITLES.....: English,Spanish,Vietnamese
SOURCE........: Empire State 2013 1080p Blu-ray AVC DTS-HD MA 5.1-CHDBits (Thanks Jack!)
CONTACT.......: TayTO.Group@gmail.com
Encoder.......: BodoiCuHo@TayTO
NOTES
Special thanks for all TayTO members and my friends!
x264 iNFO
x264 [info]: frame I:1046  Avg QP:13.29  size:116477
x264 [info]: frame P:29400 Avg QP:14.98  size: 42560
x264 [info]: frame B:105269 Avg QP:17.12  size: 14818
x264 [info]: consecutive B-frames:  1.8%  2.6% 10.4% 17.2% 18.4% 38.6%  5.3%  2.8%  2.9%
encoded 135715 frames, 5.42 fps, 4145.20 kb/s
Source vs TayTO


Скачать

Скачать торрент!

Как скачивать? · Что такое торрент? · Рейтинг и ограничения

Сайт не распространяет и не хранит электронные версии произведений, а лишь предоставляет доступ к создаваемому пользователями каталогу ссылок на торрент-файлы, которые содержат только списки хеш-сумм

[Профиль] [ЛС]
Показать сообщения:    
Ответить на тему

Текущее время: Сегодня 04:16

Часовой пояс: GMT + 4



Вы не можете начинать темы
Вы не можете отвечать на сообщения
Вы не можете редактировать свои сообщения
Вы не можете удалять свои сообщения
Вы не можете голосовать в опросах
Вы не можете прикреплять файлы к сообщениям
Вы не можете скачивать файлы