Сокровища О.К. (Дмитрий Коробкин) [2013, Россия, приключения, комедия, BDRip]

Ответить на тему
 
Автор Сообщение

user ®

Стаж: 7 лет 7 месяцев

Сообщений: 20008

Пост Пост: #1 от 27-Ноя-2013 23:15

[Цитировать]

Сокровища О.К.«Нет времени объяснять»- Страна: Россия
Жанр: приключения, комедия
Год выпуска: 2013
Продолжительность: 01:44:00-Режиссер: Дмитрий Коробкин
В ролях: Алексей Воробьев, Эльвира Ибрагимова, Байбулат Батуллин, Мария Кожевникова, Сергей Шакуров, Виктор Вержбицкий, Гоша Куценко, Светлана Чуйкина, Денис Ясик, Сергей Никоненко, Ольга Волкова, Рамиль Тухватуллин-Описание: Во время осады Казани Иваном Грозным прекрасная ханша Сююмбике приказывает спрятать несметные богатства в озере Кабан. И вот уже 500 лет судьба клада неизвестна...
В наши дни тайна сокровищ открывается обаятельному ловеласу Кириллу, и он устремляется на поиски заветного клада. На пути к богатствам Кирилл знакомится с неприступной красавицей Гулей, которая совершенно не собирается попадать под влияние чар авантюриста. Но совместные похождения и постоянно преследующая опасность заставляют молодых людей иначе посмотреть друг на друга. И неужели только сокровища могут стать главной наградой за опасные приключения?!-
-

Доп. Информация

Сценарий: Георгий Кирвалидзе, Дмитрий Терехов, Андрей Николаев, Милана Забелло, Вадим Быркин
Продюсер: Олег Сурков, Вадим Быркин, Андрей Николаев, Екатерина Урманчеева, Милана Забелло
Оператор: Дмитрий Коробкин
Композитор: Руслан Муратов, Антон Новосельцев, Алексей Воробьев
Бюджет: $6 000 000
Сборы в России: $1 431 461
Мировая премьера: 3 мая 2013
Релиз на DVD: 21 ноября 2013,
«CP Дистрибуция»

Релиз на Blu-ray: 21 ноября 2013,
«CP Дистрибуция»
-Качество: BDRip [Рип с BluRay Disc]
Контейнер: AVI
Видео: XviD, 720x400 (16:9), 1553 kbps, 25 fps, 0,216 bpp
Аудио: AC3 / 5.1 / 48 kHz / 448 kbps / 16 bit-

Знаете ли Вы, что...

  • Подводные декорации были выстроены на озере близ села Скалистое в Крыму.
  • По сюжету фильма на сцене Татарского академического театра им. Галискара Камала идет спектакль на русском языке. В реальности весь репертуар театра состоит из спектаклей на татарском языке.

Media Info

General
Complete name : G:\Sokrovischa_OK_.2013.O_BDRip.avi
Format : AVI
Format/Info : Audio Video Interleave
File size : 1.46 GiB
Duration : 1h 44mn
Overall bit rate : 2 012 Kbps
Writing application : VirtualDubMod 1.5.10.3 (build 2550/release)
Writing library : VirtualDubMod build 2550/release
Video
ID : 0
Format : MPEG-4 Visual
Format profile : Advanced Simple@L5
Format settings, BVOP : 2
Format settings, QPel : No
Format settings, GMC : No warppoints
Format settings, Matrix : Custom
Codec ID : XVID
Codec ID/Hint : XviD
Duration : 1h 44mn
Bit rate : 1 554 Kbps
Width : 720 pixels
Height : 400 pixels
Display aspect ratio : 16:9
Frame rate : 25.000 fps
Color space : YUV
Chroma subsampling : 4:2:0
Bit depth : 8 bits
Scan type : Progressive
Compression mode : Lossy
Bits/(Pixel*Frame) : 0.216
Stream size : 1.13 GiB (77%)
Writing library : XviD 1.2.1 (UTC 2008-12-04)
Audio
ID : 1
Format : AC-3
Format/Info : Audio Coding 3
Mode extension : CM (complete main)
Codec ID : 2000
Duration : 1h 44mn
Bit rate mode : Constant
Bit rate : 448 Kbps
Channel(s) : 6 channels
Channel positions : Front: L C R, Side: L R, LFE
Sampling rate : 48.0 KHz
Bit depth : 16 bits
Compression mode : Lossy
Stream size : 333 MiB (22%)
Alignment : Split accross interleaves
Interleave, duration : 40 ms (1.00 video frame)
Interleave, preload duration : 500 ms

Скриншот с названием фильма

Скриншоты

Скачать

Скачать торрент!

Как скачивать? · Что такое торрент? · Рейтинг и ограничения

Сайт не распространяет и не хранит электронные версии произведений, а лишь предоставляет доступ к создаваемому пользователями каталогу ссылок на торрент-файлы, которые содержат только списки хеш-сумм

[Профиль] [ЛС]
Показать сообщения:    
Ответить на тему

Текущее время: Сегодня 00:12

Часовой пояс: GMT + 4



Вы не можете начинать темы
Вы не можете отвечать на сообщения
Вы не можете редактировать свои сообщения
Вы не можете удалять свои сообщения
Вы не можете голосовать в опросах
Вы не можете прикреплять файлы к сообщениям
Вы не можете скачивать файлы