Погнали! / Getaway (Кортни Соломон / Courtney Solomon) [2013, США, Болгария, боевик, криминал, HDRip] MVO

Ответить на тему
 
Автор Сообщение

user ®

Стаж: 7 лет 7 месяцев

Сообщений: 20008

Пост Пост: #1 от 27-Ноя-2013 23:15

[Цитировать]

Погнали!Getaway«Get in. Get out. Getaway»- Страна: США, Болгария
Жанр: боевик, криминал
Год выпуска: 2013
Продолжительность: 01:30:04-Перевод: Любительский (многоголосый закадровый) [Baibako]
Субтитры: нет
Режиссер: Кортни Соломон / Courtney Solomon
В ролях: Итан Хоук, Селена Гомес, Джон Войт, Ребекка Бьюдиг, Пол Фримен, Брюс Пэйн, Ивайло Герасков, Димо Алексиев, Велислав Павлов, Деян Ангелов, Калойан Воденичаров, Данко Йорданов-Описание: Бывшему гонщику Бренту приходится сесть за руль и следовать указаниям таинственного человека, чтобы спасти свою похищенную жену.-


MPAA: PG-13 - Детям до 13 лет просмотр не желателен-

Доп. Информация

Сценарий: Шон Финеган / Sean Finegan, Грегг Максвелл Паркер / Gregg Maxwell Parker
Продюсер: Кристофер Милбёрн / Christopher Milburn, Кортни Соломон / Courtney Solomon, Аллан Земан / Allan Zeman, Моше Дайамант / Moshe Diamant, Рафаэль Гарсиа / Rafael Garcia
Оператор: Ярон Леви / Yaron Levy
Композитор: Джастин Кейн Барнетт / Justin Caine Burnett
Бюджет: $18 000 000
Сборы в США: $10 501 938
Мировая премьера: 26 августа 2013
Релиз на DVD: 23 января 2014, «CP Дистрибуция»
Релиз на Blu-ray: 23 января 2014, «CP Дистрибуция»
-Качество: HDRip (Исходник BDRip 720p)
Контейнер: AVI
Видео: XviD, 640x272 (2.35:1), 948 kbps, 23,976 fps, 0,227 bpp
Аудио: MP3 / 2.0 / 48 kHz / 128 kbps /-

Знаете ли Вы, что...

  • Во время съемок сцен в Болгарии актерам приходилось не раз менять гостиницу из-за огромного количества фанатов, поджидающих Селену Гомес у входа.
  • Это последний фильм студии Dark Castle Entertainment, сделанный под эгидой Warner Bros.

Media Info

General
Complete name : G:\Pognali.2013.P.HDRip_700MB.avi
Format : AVI
Format/Info : Audio Video Interleave
File size : 700 MiB
Duration : 1h 30mn
Overall bit rate : 1 086 Kbps
Writing application : VirtualDubMod 1.5.10.3 | www.virtualdub-fr.org || (build 2550/release)
Writing library : VirtualDubMod build 2550/release
Video
ID : 0
Format : MPEG-4 Visual
Format profile : Advanced Simple@L5
Format settings, BVOP : 1
Format settings, QPel : No
Format settings, GMC : No warppoints
Format settings, Matrix : Default (MPEG)
Codec ID : XVID
Codec ID/Hint : XviD
Duration : 1h 30mn
Bit rate : 949 Kbps
Width : 640 pixels
Height : 272 pixels
Display aspect ratio : 2.35:1
Frame rate : 23.976 fps
Color space : YUV
Chroma subsampling : 4:2:0
Bit depth : 8 bits
Scan type : Progressive
Compression mode : Lossy
Bits/(Pixel*Frame) : 0.227
Stream size : 611 MiB (87%)
Writing library : XviD 73
Audio
ID : 1
Format : MPEG Audio
Format version : Version 1
Format profile : Layer 3
Codec ID : 55
Codec ID/Hint : MP3
Duration : 1h 30mn
Bit rate mode : Constant
Bit rate : 128 Kbps
Channel(s) : 2 channels
Sampling rate : 48.0 KHz
Compression mode : Lossy
Stream size : 82.5 MiB (12%)
Alignment : Aligned on interleaves
Interleave, duration : 42 ms (1.00 video frame)
Interleave, preload duration : 504 ms
Writing library : LAME3.99r
Encoding settings : -m s -V 4 -q 2 -lowpass 17 -b 128

Скриншот с названием фильма

Скриншоты

Скачать

Скачать торрент!

Как скачивать? · Что такое торрент? · Рейтинг и ограничения

Сайт не распространяет и не хранит электронные версии произведений, а лишь предоставляет доступ к создаваемому пользователями каталогу ссылок на торрент-файлы, которые содержат только списки хеш-сумм

[Профиль] [ЛС]
Показать сообщения:    
Ответить на тему

Текущее время: Сегодня 08:05

Часовой пояс: GMT + 4



Вы не можете начинать темы
Вы не можете отвечать на сообщения
Вы не можете редактировать свои сообщения
Вы не можете удалять свои сообщения
Вы не можете голосовать в опросах
Вы не можете прикреплять файлы к сообщениям
Вы не можете скачивать файлы